Taylor swift folklore cd.

Jul 28, 2020 · July 28, 2020. One of the delights of Folklore, an audacious and almost-too-rich feast of an album, is that Taylor Swift moves away from a solid sense of the first person. (Beth Garrabrant) The ...

Taylor swift folklore cd. Things To Know About Taylor swift folklore cd.

Frequently bought together, Taylor Swift - Folklore Best seller, Taylor Swift- Speak Now (Taylor's Version) Double CD, $16.50, was $19.99, rated 4.9 of out 5 stars from 37 reviews Best sellerfolklore by Taylor Swift (CD, 2020, Republic Records) 4.9418 product ratings. AgustinCira (23541) 99.2% positive feedback. Price: $13.29. Free shipping.Nov 25, 2020 · A mere 11 months passed between the release of Lover and its surprise follow-up, but it feels like a lifetime. Written and recorded remotely during the first few months of the global pandemic, folklore finds the 30-year-old singer-songwriter teaming up with The National’s Aaron Dessner and longtime collaborator Jack Antonoff for a set of ruminative and relatively lo-fi bedroom pop that’s ... The Tortured Poets Department Standard Digital Album. $11.99. ADD TO CART. Shop the Official Taylor Swift Online store for exclusive Taylor Swift products including shirts, hoodies, music, accessories, phone cases & more!

Jul 24, 2020 · folklore. Taylor Swift. ALTERNATIVE · 2020. A mere 11 months passed between the release of Lover and its surprise follow-up, but it feels like a lifetime. Written and recorded remotely during the first few months of the global pandemic, folklore finds the 30-year-old singer-songwriter teaming up with The National’s Aaron Dessner and longtime ... Taylor Swift's surprise album, folklore, on CD August 7th! "Most of the things I had planned this summer didn't end up happening, but there is something I hadn't planned on that DID happen. And that thing is my 8th studio album, folklore," she said, letting fans know she poured all her whims, dreams, fears, musings into the 17 tracks. "I wrote and …

Back in 2008, then-18-year-old Taylor Swift released Fearless, her history-making and Grammy-winning sophomore album. Thanks to the album’s country-pop hits, like “Love Story” and ...

Published By – Justin Deyarmond Edison Vernon. Published By – Sony/ATV Songs LLC. …Dec 3, 2020 · Taylor Swift - Folklore "Clandestine Meetings" Edition Deluxe Vinyl 2LP Album Sold out limited release deluxe vinyl album includes: 2 vinyl albums 16 songs + bonus song "the lakes" unique, collectible covers unique, collectible back covers collectible vinyl album sleeves (each version contains lyrics, 5 unique photos, and unique artwork) unique vinyl disc photos. It is a Limbert addition revere and you have to get it if you are/know someone who is a big Taylor Swift fan. Read more. One person found this helpful. Helpful. Report. Melissa Clarke. 5.0 out of 5 stars LOVE IT!! SO FAST DELIVERY!! Reviewed in Canada on January 15, 2022. Verified Purchase. Read more.Frequently bought together, Taylor Swift - Folklore Best seller, Taylor Swift- Speak Now (Taylor's Version) Double CD, $16.50, was $19.99, rated 4.9 of out 5 stars from 37 reviews Best sellerCan we be honest for a second? Going to concerts can be a massive pain. You have to hope you get tickets (we’re looking at you, Taylor Swift), pay an arm and a leg, and then cram y...

Back in 2008, then-18-year-old Taylor Swift released Fearless, her history-making and Grammy-winning sophomore album. Thanks to the album’s country-pop hits, like “Love Story” and ...

Recorded By [Viola And Violin Recorded By] – Kyle Resnick. Recorded By [Vocals Recorded By] – Laura Sisk. Synthesizer, Synthesizer [OP1] – Thomas Bartlett. Viola, Violin – Yuki Numata Resnick. Written-By – Aaron Dessner, Taylor Swift. Mastered By – Randy Merrill. Mixed By – Jonathan Low.

Folklore - Folklore - Exclusive Limited Edition "In The Trees" Brown Colored 2x Vinyl LP Tracklist A1The 13:42 A2Cardigan4:11 A3The Last Great American Dynasty4:03 A4Exile4:57 B1My Tears Ricochet4:28 B2Mirrorball3:41 B3Seven3:41 B4August4:34 B5This Is Me Trying3:27 C1Illicit Affairs3:23 …Folklore (CD, Album, Deluxe Edition, "In The Trees") Republic Records: 00602435034805: Europe: 2020: Editado recentemente. Folklore (CD, Album, "In The Trees Edition") ... Taylor Swift – this is me trying (Official Lyric Video) 3:16; Listas Adicionar a Lista. Adicionar a Lista. Anúncio.Filename E:\own\RED\Taylor Swift - RED (Taylor's Version) {B0034504-02}\CD 1\08 - Taylor Swift - We Are Never Ever Getting Back Together (Taylor’s version).wav Peak level 100.0 % Extraction speed 3.4 X Track quality 100.0 % Test CRC 9018DE59 Copy CRC 9018DE59 Track not present in AccurateRip database Copy OK Track 972. 100. Sort by: Your cart is empty. Taylor Swift’s ‘folklore’ is a collection of songs and …Jul 25, 2020 · Taylor Swift – betty (Official Lyric Video) One of the songs on Folklore that caught the most early attention online is “Betty,” a late-album track that sees Swift return most directly to ...

Beth Garrabrant*. Taylor Swift is keeping things indie. On Thursday morning, a multitude of independently owned record stores across America took to social media to share that signed Folklore CDs ...18 videos 54,618,501 views Last updated on Aug 29, 2022. Videos and …Taylor swift - folklore (cd) Taylor Swift - folklore (CD) — 5.0 din 5 (1) | SKU: MUCD0026405N. Interpret: Taylor Swift Tip: Country, Pop, Lume (World) Producator: Animato Music / Universal Music Operator: Audio CD Numar de disuri: 1 ...Live Nation's Taylor Swift presale debacle led to harsh criticism from politicians and now a U.S. Justice Department investigation. November 21st, 2022 Last week’s market summary (...Taylor Swift [CD] Taylor Swift. 4.6 out of 5 stars 110. Audio CD. 3 offers from $15.61. Taylor Swift. Taylor Swift. 4.8 out of 5 stars 5,121. Vinyl. 37 offers from $18.37. Taylor Swift 2 Album Pack - Folklore Beige Evermore Green Record Set. Taylor Swift.

Dropping her latest album Folklore, released on July 24th, Taylor Swift broke several chart records within its first week. Though from the outside it looked very organic, almost accidental, a closer look reveals Swift and her team at Republic Records used multiple tactics and strategies to maximise the impact of the launch. 1."Clandestine Meetings" deluxe edition CD. ℗© 2020 Taylor Swift. Made in the EU. Barcode and Other Identifiers. Barcode (Scanned): 602435034768Barcode (Printed): 6 02435 03476 8 ... Taylor Swift - Folklore full album. 0:00; Lists Add to List. Taylor Swift (CD) by xo.jesslilly.xo; Albums Of 2020 by Anfunny;

2020. Recently Edited. Folklore ( CD, Album, "In The Trees Edition") Republic Records. B003271102. Australia. 2020. View credits, reviews, tracks and shop for the 2020 CD release of "Folklore" on Discogs.Sep 29, 2020 · Folklore - Exclusive Limited Edition SIGNED In The Trees CD Tracklist 1 Taylor Swiftthe 1 3:30 2 Taylor Swiftcardigan 3:59 3 Taylor Swiftthe last great american dynasty 3:51 4 Taylor Swift, Bon Iverexile 4:45 5 Taylor Swiftmy tears ricochet 4:15 6 Taylor Swiftmirrorball 3:29 7 Taylor Swiftseven 3:28 8 Taylor Swiftaugust 4:21 9 Taylor Swiftthis ... Jul 23, 2020 · Taylor Swift surprise announced her eighth studio album, Folklore, which she released on Thursday at midnight. In a post on social media, Swift said that the album came about after many of her ... Αλμπουμ της Taylor Swift σε Vinyl LP και CD. Όλη η δισκογραφία της Taylor Swift σε προνομιακή τιμή. ... “Red”, “Folklore” καθώς και special, platinum και deluxe editions βινύλια. Taylor Swift Vinyls & CD. Taylor Swift: …* ・゚:* open this * ・゚:*buy on amazon ⋆ ˚。⋆୨୧˚↪ https://amzn.to/3l67gchsocial media ☆彡♡ vinyl instagram: https://www.instagram.com ...Taylor Swift Folklore CD Sticker · Product features · Also available on · Designed and sold by ellahazelsmith · More by this artist · Stickers yo...Filename G:\My Storage\Music\New Lossless Rips\Pop\Taylor Swift (My Own 100% FLAC Rips)\Taylor Swift - Fearless - Taylor's Version (2021) {Target Limited Edition} [FLAC]\Disc 2\06 - The Other Side of the Door.wav Peak level 99.9 % Extraction speed 6.9 X Track quality 100.0 % Test CRC 8BD0B4F4 Copy CRC …A middling lyricist and melodicist wouldn’t be able to carry it. The album floats because, beneath the dramatic twists, Taylor Swift is a writer’s writer. Her stories here are more purposeful ...Jul 24, 2020 · Taylor Swift's 'Folklore' might be the best album of her entire career. Taylor Swift's new album cover and additional promo photos were taken by Beth Garrabrant. Taylor Swift released her eighth ... Las mejores ofertas para folklore by Taylor Swift (CD, 2020) están en eBay Compara precios y características de productos nuevos y usados Muchos artículos con envío gratis!

My CD arrived earlier than the expected delivery date (Yay) Ooverall a 10/10 for the album. If you are a Swiftie, it's a must buy. :) Read more. 2 people found this helpful. Helpful. ... Taylor Swift's "folklore" is mixture of beautiful melodies, stories and the amazing aesthetics! The best thing about Taylor is that she describes the scenes ...

folklore by Taylor Swift (CD, 2020, Republic Records) 4.9418 product ratings. AgustinCira (23541) 99.2% positive feedback. Price: $13.29. Free shipping.

Can we be honest for a second? Going to concerts can be a massive pain. You have to hope you get tickets (we’re looking at you, Taylor Swift), pay an arm and a leg, and then cram y...Filename G:\My Storage\Music\New Lossless Rips\Pop\Taylor Swift (My Own 100% FLAC Rips)\Taylor Swift - Fearless - Taylor's Version (2021) {Target Limited Edition} [FLAC]\Disc 2\06 - The Other Side of the Door.wav Peak level 99.9 % Extraction speed 6.9 X Track quality 100.0 % Test CRC 8BD0B4F4 Copy CRC …Jan 1, 2020 · 1-16 of 41 results for "taylor swift folklore cd" Results. folklore (Deluxe Edition) (CD) by Taylor Swift. 4.7 out of 5 stars 15,066. 700+ bought in past month. Audio CD. The Official Website of Taylor Swift. Credits. Director: Taylor Swift. Director of Photography: Jonathan Sela, ASCTAYLOR SWIFT. Formátum ... CD. Készleten. 7 990 Ft; Részletek. TAYLOR SWIFT - 1989 (TAYLOR'S VERSION) (Crystal Skies Blue) VINYL. Készleten. 15 990 Ft; Részletek. TAYLOR SWIFT - 1989 (TAYLOR'S VERSION) - INDIE EXCLUSIVE TANGERINE VINYL. ... TAYLOR SWIFT - FOLKLORE. CD. Készleten. 4 490 Ft;Frequently bought together, Taylor Swift - Folklore Best seller, Taylor Swift- Speak Now (Taylor's Version) Double CD, $16.50, was $19.99, rated 4.9 of out 5 stars from 37 reviews Best sellerEighth studio album by the American singer-songwriter. The album was created in isolation during the COVID-19 pandemic, with production from Aaron Dessner (The National), Jack Antonoff (Bleachers) and Swift herself. Departing from the mainstream pop sound of Swift's previous releases, “Folklore” is an indie folk, alternative rock, electro ...Jun 8, 2023 · A softer, grown Taylor in an indie/pop/folk package. Reviewed in the United States on July 24, 2020. Verified Purchase. "Folklore" has none of the over-the-top fanfare that Taylor has included (especially her singles) in her last few albums. Rather, "Folklore" is quieter, more thoughtful, and undoubtedly her most poetic storytelling to date. Check out ihe list of Taylor Swift albums in order here! Taylor Swift — October 24, 2006. Fearless — November 11, 2008. Speak Now — October 25, 2010. Red — October 22, 2012. 1989 — October 27, 2014. Reputation — November 10, 2017. Lover — August 23, 2019. Folklore — July 24, 2020.Taylor Swift's surprise album, folklore, on CD August 7th! "Most of the things I had planned this summer didn't end up happening, but there is something I hadn't planned on that DID happen. And that thing is my 8th studio album, folklore," she said, letting fans know she poured all her whims, dreams, fears, musings into the …

Taylor Swift. 63 adet ürün bulunmaktadır. Plakları CD'leri DVD'leri Tüm Taylor Swift Ürünleri 1989 (Taylor's Version - Tangerine Vinyl) (Plak) ... Folklore (Limited Deluxe Edition - Beige Vinyl) (Plak) Taylor Swift. 2 LP. 1,620.00 TL . Lover (Colored Vinyl) (Plak) Taylor Swift. 2 LP. 1,625.00 TL ...Jul 24, 2020 · Taylor Swift. A mere 11 months passed between the release of Lover and its surprise follow-up, but it feels like a lifetime. Written and recorded remotely during the first few months of the global pandemic, folklore finds the 30-year-old singer-songwriter teaming up with The National’s Aaron Dessner and long-time collaborator Jack Antonoff ... Sep 29, 2020 · Folklore - Exclusive Limited Edition SIGNED In The Trees CD Tracklist 1 Taylor Swiftthe 1 3:30 2 Taylor Swiftcardigan 3:59 3 Taylor Swiftthe last great american dynasty 3:51 4 Taylor Swift, Bon Iverexile 4:45 5 Taylor Swiftmy tears ricochet 4:15 6 Taylor Swiftmirrorball 3:29 7 Taylor Swiftseven 3:28 8 Taylor Swiftaugust 4:21 9 Taylor Swiftthis ... Instagram:https://instagram. marble rock lowesdigital image files nyt crossword cluethis week in astrology cafe astrologyups store dierbergs Collection folklore Album Shop is empty. Shop the Official Taylor Swift Online store for exclusive Taylor Swift products including shirts, hoodies, music, accessories, phone cases, tour merchandise and old Taylor merch! taylor swift - folklore (deluxe) The GRAMMY-winning, Album Of The Year: Download. Stream. what do u want from me lyricsfetlife.comk Taylor Swift – betty (Official Lyric Video) One of the songs on Folklore that caught the most early attention online is “Betty,” a late-album track that sees Swift return most directly to ... lowes com ac #1 Best Seller in Traditional Folk. 300+ bought in past month. $2025. Leavin' like a father. Running like water, I. And when you are young, they assume you know nothing. But I knew you'd linger like a tattoo kiss. I knew you'd haunt all of my what-ifs. The smell of smoke would hang around this long. 'Cause I knew everything when I was young. I knew I'd curse you for the longest time. Taylor Swift – Folklore. More images. Label:Republic Records – B0032711-02: Format: CD, Album, Deluxe Edition, "In The Trees" Country:US: Released:Aug 4, 2020: ... is this version the signed folklore cd or just the regular? Reply Helpful. latonero_cj7 May 15, 2022. Report (1141600) B003271102 20 Hello. This has been the code of my signed ...